Index Of Mp3 Oldies

14 01 - Roy Orbison - Running Scared 02 - Connie Francis - Second Hand Love 03 - The Everly Brothers - Crying In The Rain 04 - The Crests - Step By Step 05 - The Shirelles - Mama Said 06 - The Angels - My Boyfriend's Back 07 - Ray Charles - Unchain. Beach Boys - Download songs & albums online ♫ ♬ MP3MIXX. mp3: 2008-05-18 12:35 : 3. Index of /MP 3/Kenny G Kenneth Gorelick (born June 5, 1956), better known by his stage name Kenny G, is an American saxophonist whose fourth album, Duotones, brought him "breakthrough success" in 1986. Index of /media files/MP3/Albums Name Last modified Size Description : Parent Directory - 01-Drinking a Drown. 4M: 10-Sep-2012 15:03: adele - rolling in the deep. Artist: Braids Title: Deep In the Iris Year Of Release: 2015 Label: Arbutus Records Genre: Pop/Rock, Rock Alternative & Indie Quality: MP3 320 kbps / FLAC (tracks) Total Time: 00:41:28 Total Size: 103. Hi Nabee I have the longer version and it is indeed funky, I would appreciate if you could upload the shorter version. Man-o-pause: Providing Men A Place To. 100 Greatest Freestyle Dance Songs Definition: Freestyle music is a form of hip hop dance (Latin hip hop, Latin pop) that originated from the electro-funk of Afrika Bambaataa & The Soul Sonic Force's 1982 seminal track "Planet Rock". Public Domain Movie Torrents hosts a wide variety of movies now in the public domain that you can download for free using BitTorrent technology. Download Mp3 Gratis Index of MP3 disediakan hanya untuk keperluan evaluasi !!. In brackets follows first the artist whose version is probably the best know, followed by the performer of the original (or the oldest version I could locate for purposes of posting it). Have fun learning traditional songs in English, French, Spanish and German! Sign up, download, and sing! We hope you enjoy your visit to our website! Karaoke Version also contains thousands of instrumental tracks, custom accompaniment tracks and Karaoke Videos. The idea is simple yet very powerful. Kenny Wayne Shepherd Band - Ledbetter Heights 26-Apr-2007 5M - - Christmas Dreams Songs 2-May-2007 5M - - George Michael - Rare & Remixed Volume 1 10-Aug-2002 5M - - Simply Red - 25 the Greatest Hits (2008) 7-Jun-2002 4M - - Country & Western Hits Vol. Look at most relevant Index of mp3 music oldies shakin stevens websites out of 8. Index Of Mp3, Download Lagu Terbaru, Download Mp3, Musik Indo Gratis Hits, Gudang Bursa Lagu Mp3. What Makes The Pop Culture Madness Music Charts Different From Other Music Charts? Did you know that more people are familiar with Frank Sinatra's "Summer Wind" than "Winchester Cathedral" or "Ballad of the Green Berets," yet the latter two were No. Enjoy our selection of Free MIDI music file downloads, soundfonts, MIDI utilities and more. Some MP3 players can also receive FM radio stations. Limewire gives you unlimited downloads of any music or video file on the free network. mp3 1634 K 25/07/2004 21:12:22 audio/mpeg 4U2C - Dusta. Álbum se puede descargar desde Mimp3 y escuchó en bitrate alta calidad 320Kbps (VBR), que ofrece actualmente la mejor y óptimo música de experiencia Index Of Madonna. Highest quality MP3 files (320kbps) tagged and ready for all DJ software; Over 60 sub-genres including Dance, House, Hip-Hop, R&B, Pop, Latin, Rock, Country, Reggae, plus the biggest Electronic catalog of any DJ Pool; Partnered with more than 2000+ top major & indie labels worldwide. Mp3 juice should be your number one as far as mp3 quality is concerned. Diverse styles and formats. Because, technically, Beck is a one-hit wonder. Index of /MP 3/Kenny G Kenneth Gorelick (born June 5, 1956), better known by his stage name Kenny G, is an American saxophonist whose fourth album, Duotones, brought him "breakthrough success" in 1986. MIDI Files backing tracks by genre including Top 40, pop, rock, classic and retro hits, country, Latino, jazz and more. Use your rakuten. Stream SiriusXM on the go and at home. 634-5789 (Soulsville, U. Series information Type: Release group series Ordering Type: Genres. mp3: 23-Apr-2020 15:40 : 1. INDEX 00 08:12:02 INDEX 01 08:14:02 TRACK 04 AUDIO TITLE "Angel of the Morning" PERFORMER "Juice Newton" INDEX 00 11:47:08 INDEX 01 11:49:08 TRACK 05 AUDIO TITLE "Don't Make My Brown Eyes Blue" PERFORMER "Crystal Gayle" INDEX 00 16:03:28 INDEX 01 16:05:28 TRACK 06 AUDIO TITLE "I'd Love You to Want Me" PERFORMER "Lobo" INDEX 00 18:47:56 INDEX 01. Palisades Park - Freddy Cannon 6. Directed by Sergio Leone. every song thats made the golden oldies top 4o. Our catalog contains country music, rock'n'roll, rhythm'n'blues, folk, beat, oldies, jazz, chansons, cabaret, and culture. 3) It's another visit to The Wax Museum. I have a good collection of Chinese oldies. Listen to a rare, very early Casey Kasem recording on KRLA, Pasadena, CA from May 27, 1965 (MP3-file, 192 kBit/s mono - 87,080 KB / 1 h 2 min) with commercials - most of them done by Casey himself !. On-demand Real Oldies (1955-1975) around the clock. 100% legal. The 50 best old songs remixed -- listen to classic rock, r&b, soul, hip-hop and folk oldies remade by house, electro, dubstep and techno dance music producers. You don't have to convert videos from YouTube to mp3. 2 - Various Artists 27-Oct-2003 5M - - Taylor Swift - Fearless (2008) 25-Mar-2000 4M - - VA - Massive R&b: Winter Collection 2008 7-Feb-2008 5M. The band's last good seller was the 1989 album, One. This entry was posted in News and tagged best of tilahun gessesse, tilahin gessesse, tilahun gessesse music, tilahun gessesse music collection, tilahun gessesse old songs, tilahun gessesse oldies, tilahun gessesse song, tilahun gessesse songs, tilahun gessesse songs list, tilahun gessesse yasalefenew zemen. Parent Directory - AC DC - Its A Long Way To The Top. Holiday Partner Dance Music. Each Volume has 125 songs from genres that appeal to seniors with dementia. Switch between stations and streams. Only dramas that feature crime, the element of evil and a drop of deceit. You will also find sections on favorites like Elvis, The Beatles, the heartbreaking JFK assassination, the Buddy Holly plane crash and lots more. Index of /media/mp3 Name Last modified Size Description : Parent Directory - ABBA - Dancing Queen. > 2013-06-01 01:59 : 12M : entrancegate/ 2011-01-04 15:41 - frontpage/ 2012-01-05 12:59 - goldenage/ 2011-01-04 12:59 - harmony/ 2011-09-03 00:34 - metroid/ 2012-11-28 13:04 - new/ 2012. Online, everywhere. 'Classic Oldies' MP3 on Radio Javan, your number one source for Persian music and entertainment!. 2 - Various Artists 27-Oct-2003 5M - - Taylor Swift - Fearless (2008) 25-Mar-2000 4M - - VA - Massive R&b: Winter Collection 2008 7-Feb-2008 5M. mp3 2008-Dec-24 5664961 ABBA - Honey, Honey. > 2013-06-01 01:59 : 12M : entrancegate/ 2011-01-04 15:41 - frontpage/ 2012-01-05 12:59 - goldenage/ 2011-01-04 12:59 - harmony/ 2011-09-03 00:34 - metroid/ 2012-11-28 13:04 - new/ 2012. com/music Name Last modified Size Description : Parent Directory - 2Pac - California Lo. MP3 Index est un indexeur de fichiers MP3 couplé ŕ un moteur de recherche multicritčres puissant afin de vous permettre de gérer au mieux votre collection de MP3. New Releases. > 2018-05-09 18:59 : 8. It is the express goal of BigRRadio to demonstrate our commitment to our listeners and advertisers’ privacy. 9 - All For Me For. Online, everywhere. Free trial available. width 225. Christmas/Santabilly Boogie. Listen to Classic American Top 40 Live for Free! Hear Casey Kasem Counts Down 70's & 80's Hits, only on iHeartRadio. Index of Oldies MP3 - Dark rose November 12, 2013, 8:27 pm. 1M 80's One Hit Wonders -Todd Rundgren. I'm busy working on my blog posts. Ameren Illinois announced on Tuesday that they had partnered with the City of Kewanee to replace the lights in nearly 700 streetlights with LED"s. mp3, conversaciones en ingles, dialogos en inglés, english conversations, english dialogues, listening english, audio dialogs, oral, curso gratis de ingles on line. Download mp3 daftar lagu Barat dengan mudah, gratis sepuasnya. All you need to do is to relax and not to be concern on your problems. MP3 Cutter is a Windows desktop utility allows you to cut and split a big MP3 or video to small audio pieces. This is the alphabetical index of the songs that have been covered in the series of lesser-known originals. oldies - 4shared. Oldies Country Electronic Hip Hop/Rap Pop R&B/Soul View All Featured Artists Specials Top Plays Top Downloads More MIDI. mp3: 2008-07-30 14:59 : 6. Our Sing-Along Oldies Collections, Volume 1 and 2 are playlists of hit songs from the 1940's, 1950's, 1960's all pre-installed onto an easy-to-use Flash Drive. 00b: June 9 2013 at 19:18: Beatles: 0. Bajantube offer various advertising solutions to both corporate and private clients. Each collection has 125 songs that come from different genres. Com Latest Music, Bollywood Songs, Hit Singles. he like (country classic country,and oldie and he watches duck dynasty )but i know nothing about country or that showbut im the only person he can go to,to put music on a device im into hip-hop and rockcan you give me a list of good country,oldies. Movies/G Name Last modified Size Description : Parent Directory - Galaxy Quest (1999). com - Retro music quizzes and playlists from the '80s, '90s and '00s. Welcome to the best free mp3 and music archive! Waptrick. Super MP3 Download for Mac 4. Switch between stations and streams. The following is a list of FCC-licensed radio stations in the U. Site provides high quality mp3 downloads. mp3 2008-Dec-24 4942304 ABBA - Hasta Manana. Just Backing Tracks are professional MP3 music backing tracks for singers, performers, auditions and learning. James' Oldies. mp3: 2009-10-04 08:03 : 4. Safe and fast downloads for Windows, Mac and Linux apps. mp3: Elvis: Return To Sender: Oldies: MPEG 1 Layer III: Elvis - Suspicious Minds(long). Using the HTML5-player in the browser. Artist: Braids Title: Deep In the Iris Year Of Release: 2015 Label: Arbutus Records Genre: Pop/Rock, Rock Alternative & Indie Quality: MP3 320 kbps / FLAC (tracks) Total Time: 00:41:28 Total Size: 103. 29 on iTunes 2. 3M 80's One Hit Wonders - Glenn Fry - All She Wants To Do Is Dance. Brief Royalty Free Music, short jingle and intro track, a few seconds of music to give a mood to your podcast, film, television or radio show, and to give a rhythm to your editing etc Tesla Electronic jingle music. Parent Directory. /-- 23/09/2004 23:16:22 Directory 3 Doors Down - Away From The Sun. Search thousands of gospel song lyrics, Contemporary Christian song lyrics, praise & worship along with Christian rock songs This site is dedicated to praising God through song. Waptrick Mp3 Music Download. uk Download Store is home to millions of songs and albums by current artists and classic bands alike. Use the alphabetical navigation bar above to find songs starting with the indicated letter. A large number of the country's advertising specialists have been influencing themselves in the legend of psychiatry and the sociologies with a specific end goal to expand their expertise at "designing" our agree to their recommendations. 100 Hits Rock Anthems (2011) 0. Founded in 1925, Random House is the proud publishing house of the world’s most acclaimed storytellers, thought leaders, and innovators. Paul, Minnesota stations. Due to a change in our server's policy, NO username and passwords are required. There are really quite a lot of great tunes here; and the sound quality will not disappoint you. mp3: 2009-12-24 01:31 : 9. This Week’s Flashback Friday DEJA VU Poll DJ Smitty | June 5, 2020June 5, 2020 Which version of the song Hello Mary Lou did you like better?Click on the version you prefer, then click VOTE NOW Gene. Golden Records is one of the most stable, easy-to-use, and comprehensive vinyl records & cassette tapes converters available. 8tracks radio. Every visit to Waptrick. Álbum se puede descargar desde Mimp3 y escuchó en bitrate alta calidad 320Kbps (VBR), que ofrece actualmente la mejor y óptimo música de experiencia Index Of Madonna. mp3: 2008-07-26 22:28 : 2. Playlist For A Different Kind Of Oldies Show #43. Welcome to SongsPK - One place where you can download latest and old Bollywood songs. Individual albums and selected individual songs can be purchased via MP3 download. As an file sharing search engine DownloadJoy finds 100 golden jukebox oldies of the 50s 60s 70s files matching your search criteria among the files that has been seen recently in uploading sites by our search spider. 634-5789 (Soulsville, U. Listened: 79. Smells like 30 years ago. Read the latest music news on rock, pop, country, jazz, rap, hip hop and more, get ringtones and lyrics. 5M: The Roots - Game Theory. Style: Chillout/Lounge, Jazz/Acid Jazz. Golden Records is one of the most stable, easy-to-use, and comprehensive vinyl records & cassette tapes converters available. Whirlin Disc: Oldies - 45s Cds Lps Cassettes Doo Wop And Home Of The Oldies Whirlin' Disc - Oldies: 45s, Doo-Wop, Country, LPs, CDs, Cassettes, home of the Oldies, 50s and 60s Rock N Roll and Acapella. Please see here for details. mp3 Instrumental Favorites Panpipe Moods Mountains of Serenity. Oldies, Charts, News. com (Old Time Radio Catalog) has all your favorite old time radio shows from the 1920s , 1930s , 1940s , 1950s , and 1960's. Read the latest music news on rock, pop, country, jazz, rap, hip hop and more, get ringtones and lyrics. Hot New Releases 2020 BLM – Stand Up Part 1 & 2 BPM 34 – House Party Missile 65 – Quaranting MashUp 23 DJ JUAN – FACEBOOK LIVE MIX Cd. 1956-033 Frank Sinatra - (Love Is) The Tender Trap. Elvis - Love Me Tender. Non stop Ghana Gospel Music Mix - Worship and Praises Ghana gospel music worship,- Thank You by OBAAPA LINDA - Latest 2014. Oldies But Goodies Free Midi Songs Classic midi renditions of your favorites from the 50's and 60's Television Show Midi Files Almost every old TV theme show song you can imagine in midi file format Video Game Midi Files You can now play your favorite annoying, incessant midi game music anytime you want. Parent Directory. Karaoke and DJ digital song books on mobile devices - requests sent to your DJ/KJ laptop! Also integrates with PCDJ™ karaoki and MTU Hoster. Over 15 millions mp3 music tracks. mp3: 2009-10-04 08:04. Make your own halloween sound effect cd and play it while the kids come trick or treating, or just make some spooky fresh beats. 5 Music Addons Kodi you must Have. Louie Louie - The Kingsmen 3. A resource for independent artists and avid music lovers and collectors. Make your own favourite songs album & share with the world. I found this on google: "The commercial song is “I Found A Place In My Heart” by Dom James Featuring Emma Smith. My Boyfriend's Back - The Angels 5. Kenny's main instrument is the soprano saxophone, but he also plays the alto and tenor saxophone and the flute on occasion. mp3: 2020-06-23 19:23. Amazing Music That Will Make Your Personal You Tube Videos Come Alive! Browse and sample music from our 33 Genre/Category Hot Lists. 100% FREE and no special license needed. A GM SoundFont has presets (instruments) defined for all 128 melodic midi programs, plus at least one percussion set. COMMENT Recorded 1940-1942, not published until 1972. Most of my mp3s are older than me. mid: 27-Jul-2015 12:30 : 70K : AC DC - Jailbreak. Waptrick Mp3 Music Download. 50/60/70's Music pages index! Click any line to go to that page -- scroll down to review all pages! The Monkees! Simon and Garfunkel! The Seekers! The BeeGees! John Wind songs! Dan's Sixties! 56 to 75 No. Playa Cofi Jukebox at Tropicalglen. 1 Hasta Manana. rock 60's 70's. The apocalypse proves a blessing in disguise for one lucky recluse -- until a second survivor arrives with the threat of companionship. Feel free to browse through thousands of Christian lyrics and black gospel lyrics from a broad range of popular gospel and contemporary Christian music artists. Learn how to download music to your computer. Improve your performance with a pair of headphones that are light, comfortable and make your running playlist sound fantastic. Stream And "Listen Zip Album Brenda Fassie - Greatest Hits 1964-2004" Zip Download" 320kbps datafilehost Fakaza Descarger Torrent CDQ Itunes Album Below. mp3: 2018-11-16 11:32. mpg , divx with google 30 January 2008 , by Nadir Soualem All the versions of this article: < français >. wma: 2014-09-09 13:48 : 3. 50 Greatest Songs of Hawaii An esteemed panel of musicologists, producers and artists select the 50 greatest songs in Hawai‘i music history. Movies/G Name Last modified Size Description : Parent Directory - Galaxy Quest (1999). Connecticut is working with a 30-day buffer between phases of reopening. If you would like to download your favorite MP3 karaoke tracks (in audio-only format), you can do this directly from Taranaa Song Index. Stream the music you want and download your favorite songs to listen offline. All you need to do is to relax and not to be concern on your problems. Petey Pablo) - Pacemaker (DJ 52 Redrum) 84 Pink Sweat$ - 17 (DJ 52 Redrum) 130 Martin Garrix (feat. 1, Windows 10 Mobile, Windows Phone 8. 1 Hits! The 50's made me! 1970's four pages of hits! Roger Whittaker - All my Hits! More sixties hits and some Fifties! Hits from 1955 thru 1959!. Mp3-Downloads-Free. Rankings were compiled as follows:To qualify, an artist had to have. Ev'ry Valley Shall Be Exalted (Rolando Villaz¢n). (#1s shown in red). 4M : Frankie Goes To Holl. Apache Server at 1songday. Deep Relaxation Music by A. You can find lyrics to Oldies and more @ OldieLyrics. MP3] 20-Apr-2018 16:20 The Beatles Collection, Volume 2: A Hard Day’s Night ⁄ Beatles for Sale (Full Album) [320kbps. top- best old school slow jams mix r&b & soul 70's, 80's & 90's audio preview. 00 per track download. 2 - Various Artists 27-Oct-2003 5M - - Taylor Swift - Fearless (2008) 25-Mar-2000 4M - - VA - Massive R&b: Winter Collection 2008 7-Feb-2008 5M. What Makes The Pop Culture Madness Music Charts Different From Other Music Charts? Did you know that more people are familiar with Frank Sinatra's "Summer Wind" than "Winchester Cathedral" or "Ballad of the Green Berets," yet the latter two were No. Have fun learning traditional songs in English, French, Spanish and German! Sign up, download, and sing! We hope you enjoy your visit to our website! Karaoke Version also contains thousands of instrumental tracks, custom accompaniment tracks and Karaoke Videos. > 2016-01-26 22:51. The best MP3 and audio player ought to quench our passion for music, such as by inspiring us to rip or download music, organize our music libraries, learn more about our favorite artists or music, or just listen to music. With MP3 Cutter, you can split and cut not only MP3 format, but also WMA, WAV, AMR, WMV, AVI, MPG, 3GP, MP4, FLAC, OGG, WMV, MOV and more than 40 audio & video formats. Elvis Presley - If Every Day Was Like Christmas - Time-Life Music Treasury Of Christmas -- Disc B-02. Christmas/Silent Night - Christmas on the Mountain. OldApps is the largest software archive. messages on websites; 10. mp3: May 06 2009 9:19:41 am: 7. mp3 1598 K 25/07/2004 21:12:02 audio/mpeg 3 Doors Down - Here Without You. Free Mp3 Trini Lopez Download , Lyric Trini Lopez Chord Guitar , Free Ringtone Trini Lopez Download , and Get Trini Lopez Hiqh Qualtiy audio from Amazon , Spotify , Deezer , Itunes , Google Play , Youtube , Soundcloud and More. Find classic country tracks, artists, and albums. Download Lagu Geratis I Love The 80s - 80s Music Hits - Nonstop 80s Greatest Hits - Best Oldies Songs Of 1980s 36MB [39:19] 128 Kbps,160 Kbps,192 Kbps,224 Kbps,256 Kbps,320 Kbps free mp3 mp4 flv 3gp and othe only at parkafans. COVID-19: We have resumed very limited warehouse and shipping operations. Chicago - 25 or 6 to 4. Welcome to our halloween sound effects page set up for Halloween 2020. If you want an MP3 player to use while exercising, we recommend a model with a built-in clip to easily attach to your waistband or collar. mp3 2008-Dec-24 4942304 ABBA - Hasta Manana. Please see here for details. Index MP3 - Download Lagu Terbaru Full Album Gratis Beserta Lirik. Index of /media files/MP3/Albums Name Last modified Size Description : Parent Directory - 01-Drinking a Drown. MP3 Rocket is the fastest YouTube to MP3 Converter. Of Mp3, Music, Movies, Film, Ebook, Games, Applications, Download From Rapidshare, 4Shared, Ziddu, Easy Share, Hotfile, Netload, Torrent. > 2008-11-23 20:01. Did your favorite radio station change formats? Enter your zip code OR city and state and then select the format you are looking for to find stations that play the format you like in your area. A-Z by Song for 2017. every song thats made the golden oldies top 4o. Each collection has 125 songs that come from different genres. > 2018-05-09 18:59 : 8. No registration required!. Download Lagu Geratis I Love The 80s - 80s Music Hits - Nonstop 80s Greatest Hits - Best Oldies Songs Of 1980s 36MB [39:19] 128 Kbps,160 Kbps,192 Kbps,224 Kbps,256 Kbps,320 Kbps free mp3 mp4 flv 3gp and othe only at parkafans. I have a good collection of Chinese oldies. 99 MB: Cape Cod Radio Mystery Theater_The Caller On Line One - (First and most popular thriller). Songs from the 70's Yes! We have all these songs, plus more! Back to Song Lists. Index of /Music/My Music Name Last modified Size Description : Parent Directory - 38 Special/ 2014-09-09 13:51. Sonny was an original member of the Boogie Knights, the band that started the disco band craze in 1992. 3 MB: Elvis Presley - A. uk account for easy access. Oldies K-SURF – is a commercial oldies radio station licensed to Beverly Hills, California. Man-o-pause: Providing Men A Place To. Have fun learning traditional songs in English, French, Spanish and German! Sign up, download and sing! We hope you enjoy your visit to our website! Karaoke Version also contains thousands of backing tracks, custom backing tracks and Karaoke Videos. Downloads: 43, Comments: 27. BuyKaraokeDownloads - Thousands of the Most Popular Karaoke Songs, Albums, and More. All songs are the original versions as were released in those eras A and performed by the original artists. Christmas/Santa's Gonna Come In A Pickup Truck - Alan Jackson and the Chipmunks. 2M: Gorillaz - Demon Days - 07 - El Manana. 1 MB: Edison Lighthouse - Love Grows. mp3 Leviticus Burial Logistics remix Burial (Logistics Big Bad and Heavy remix). Once downloaded, these MP3 tracks are yours to keep! You can then put them on your iPod, audio CD or any other device capable of playing MP3 music. Sonia Pottinger was Jamaica’s first and foremost female record producer; her husband, Lyndon O. Easily bring more value to your music collection by knowing what you music is at all times? Be reminded of golden oldies and feel safe in case you ever need your insurance. /-- 23/09/2004 23:16:22 Directory 3 Doors Down - Away From The Sun. Used in 52 countries - FREE for the public, FREE 30 day trial for DJs. MP3 Index est un indexeur de fichiers MP3 couplé ŕ un moteur de recherche multicritčres puissant afin de vous permettre de gérer au mieux votre collection de MP3. Currently has about 250 hit record surveys of that time period from Minneapolis/St. This entry was posted in News and tagged best of tilahun gessesse, tilahin gessesse, tilahun gessesse music, tilahun gessesse music collection, tilahun gessesse old songs, tilahun gessesse oldies, tilahun gessesse song, tilahun gessesse songs, tilahun gessesse songs list, tilahun gessesse yasalefenew zemen. Download music and videos. MP3 Cutter is a Windows desktop utility allows you to cut and split a big MP3 or video to small audio pieces. Holiday Partner Dance Music. As well as great music, Solid Gold GEM AM combines elements from the best radio stations of the past. latest news: quick listen links below for the hi q stereo stream and more! mp3 stream link. Seems to me frugal way for limited data pack users. Get all the greatest oldies music from the fifties, sixties and seventies. Free Country Music Downloads from Our Music Store: Do you like country music? We've a huge collection of free country music downloads in our store and also have an online mp3 player that streams country music tracks. 100 Greatest Freestyle Dance Songs Definition: Freestyle music is a form of hip hop dance (Latin hip hop, Latin pop) that originated from the electro-funk of Afrika Bambaataa & The Soul Sonic Force's 1982 seminal track "Planet Rock". 19th Avenue #13, Phoenix, AZ 85021. Song titles word musicological list such as Male names, Female, Boys, Girls, Mens, Womens, Fantasy names etc. 6M : WatchersFromAbove. This web site is dedicated to country music lovers that really enjoy the older country songs. Equally important, it gives them opportunities to make revenues through licensing the music for in store play, produce songs for various leading brands and also tap. /-- 23/09/2004 23:16:22 Directory 3 Doors Down - Away From The Sun. Later, Bee Gees produced unremarkable works, which forced them to take a break. Almost 50 Gigabytes. I found this on google: "The commercial song is “I Found A Place In My Heart” by Dom James Featuring Emma Smith. iMesh enables you to access over 2,000,000 licensed music downloads, diverse and evolving music community; Over 15,000,000 free MP3's and high speed downloads. mpg , divx with google 30 January 2008 , by Nadir Soualem All the versions of this article: < français >. Unfortunately most was stolen during a burglary in my family old home long time ago. - stream 500+ doo wop playlists including 50s, oldies, and 60s music from your desktop or mobile device. Find album reviews, stream songs, credits and award information for 100 Golden Jukebox Oldies of the 50s, 60s & 70s - Various Artists on AllMusic - 2006. 31Mb: September 13 2006: 003 - Faith No More - Epic (1990). 1 Hits! The 50's made me! 1970's four pages of hits! Roger Whittaker - All my Hits! More sixties hits and some Fifties! Hits from 1955 thru 1959!. This Week’s Flashback Friday DEJA VU Poll DJ Smitty | June 5, 2020June 5, 2020 Which version of the song Hello Mary Lou did you like better?Click on the version you prefer, then click VOTE NOW Gene. Main Phone 1 (601) 982 - 4522. Though the samples are only 80 kbps, all CD's are burned from 192-320 kbps. The artwork is very nicely done as well. 1956-033 Frank Sinatra - (Love Is) The Tender Trap. This is the largest collection of Karaoke songs in MP3+CDG format I could find. state of Maine, which can be sorted by their call signs, frequencies, cities of license, licensees, and programming formats. Here at Allflac. Index of /media files/MP3/Albums Name Last modified Size Description : Parent Directory - 01-Drinking a Drown. Songs from the 70's Yes! We have all these songs, plus more! Back to Song Lists. 4M: 10-Sep-2012 15:03: adele - rolling in the deep. Johansson, Olle -Olle Johansson Original Jazz Fusion MIDI & MP3 - Jazz Fusion -. Mp3 Indonesia lengkap hanya di gudang lagu mp3 Gratis. avi; Darwin's Ghost: The Origin of the Species Updated Steve Jones; 0218 e oo oo. 1M 70's One Hit Wonders - Alan O'Day - Undercover Angel(1). Academy of the Punjab in North America (APNA) A non-religious and non-political organization of all Punjabi's for the promotion of Punjabi language and culture OLD SONGS. Best 6 Sites to Download Free Hindi Songs Every year Bollywood produces hundreds of movies which are full of brilliant Hindi songs. So, here is a list of the top 50 Jesus songs free download after listening to which you will be lost even more in the prayers of the Lord. oldies - 4shared. Hai Friends i want to share some of my oldest / old tamil movie collection. 3M 80's One Hit Wonders - Glenn Fry - All She Wants To Do Is Dance. Checkie Brown Wirklich Wichtig (CB 27) hey Soul-RnB, Big Band/Swing Checkie Brown Roadtrip (CB 37) hey Soul-RnB Checkie Brown Jeanny (CB 35) hey Pop , Soul-RnB. latest news: quick listen links below for the hi q stereo stream and more! mp3 stream link. Independent, Adult Alternative Music, Public Radio Style, Wide Variety, Multi-channel music broadcasts by real people who know the music. Portugese pop artists. It can be used to create an Internet radio station or a privately running jukebox and many things in between. Indexes of Songs Index - Gospel Choruses & Songs (2018) Index - Gospel Choruses Songs (June 2020). Index of /Music/My Music/80's rock Name Last modified Size 10-Paranoid. This Lou Christie classic from 1966, a number one hit from that year, came out in 1983 as a dance cover from female led studio group called SFX. The oldest, continuing radio show broadcast in the United States. Have fun learning traditional songs in English, French, Spanish and German! Sign up, download, and sing! We hope you enjoy your visit to our website! Karaoke Version also contains thousands of instrumental tracks, custom accompaniment tracks and Karaoke Videos. If you like oldies you have come to the right place, we offer oldies A to Z by 250 of the best music artists listed A to Z with songs from the 40s, 50s, 60s, 70s and 80s also find One Hit Wonders, oldies but goodies and oldies love songs with mp3 downloads free. He became the very embodiment of American values and patriotic pride. Oldies Music Popular Artists was played and recorded more oldies traditional music and most audiences like to listen those oldies. Customer Service 1 (800) 272-7936. Find album reviews, stream songs, credits and award information for 100 Golden Jukebox Oldies of the 50s, 60s & 70s - Various Artists on AllMusic - 2006. Gordon Lightfoot and Folk Music Web Site, dedicated to Gordon Lightfoot and including songs & lyrics, CDs and DVDs, biography, latest tour schedule with concert presale information whenever possible and more. strings of text saved by a browser on the user's device, possibly also those of third parties. mp3 28-Jan-2007 15:7 Abba Medley Dance Mix (The Ultimate Party Megamix from the 60s 70s 80s & 90s Stars on)(1). The apocalypse proves a blessing in disguise for one lucky recluse -- until a second survivor arrives with the threat of companionship. The best music of 4 decades - Only the best oldies from the 60, 70, 80 and 90 without pauses - La mejor musica de 4 decadas - Solo los mejores oldies de los 60, 70, 80 y 90 sin pausas-Produccion: Quique Frias - Berlin - Alemania E-Mail: [email protected] Macklemore & Patrick Stump) - Summer Days (DJ 52 Redrum) 114. Flavours of the 1960s UK ‘pirate radio’, the early days of Independent Radio, with nostalgic jingles recorded in Dallas Texas, the true home of radio jingles world-wide. Comfort Ye My People (Rolando Villaz¢n) $1. But the bulk of my 70's music focuses on both the pop and rock hits from each year. Christmas/Santa's Beard - Beach Boys. Index of /media/Mix Archive/Misc Name Last modified Size Description : Parent Directory - 808's Spinmaster - D. The Godly Christian Music administrator frequently had to stop the process of learning again and again on account of several life trials. SurfRootsClassics 58 Listeners — 60s Easy Listening 70s Oldies — MP3. Further information about the mp3 search process: While you entering your searched mp3 name, FreeMP3 will show you at least 5 keyword suggestions which will help you to complete your search. Classic Golden Oldies Songs - MP3 Flash Drive. There are really quite a lot of great tunes here; and the sound quality will not disappoint you. wma: 2014-09-09 13:48 : 3. Com Latest Music, Bollywood Songs, Hit Singles. Change song chords to a new key!. Oldies Music Popular Artists was played and recorded more oldies traditional music and most audiences like to listen those oldies. Songs that sounded great then and still sound great even 30 or 40 years later. Bethel Music Ministry--EndZenbaba Enlemlmlan--Track 06. com provides music charts from all over the world, like US / UK Albums and Singles, Bilboard Chart, Dance charts and more. > 2014-09-09 13:48. All But Forgotten Oldies has listings for over 4700 bands and artists from 1940-1990, with thousands of song titles from 1960-1975 linked to sound clips. Free Oldies Music, Download Oldies Songs – EZ-Tracks, Listen to Free Online Oldies Radio Stations - Live365 Internet Radio, Free Oldies Music: Albums, Songs, Videos, Playlists - Rhapsody. all i have to do is dream - everly brothers hp 1 wi 19 all shook up - elvis presley hp 7 wi 8 all the way - frank sinatra anyone who had a heart - dionne warwick april lov. After receiving a CD of 8-bi video game. Shop with vouchers and credit Use your Super Points to get gift cards and shop credit from top retailers like Tesco and M&S. Store Location: 7828 N. mp3 2008-Dec-24 4541233 ABBA - TLC. mp3 1914 K 03/09. Enjoy your favorite oldies from the 1950s and 1960s, along with selected music from the 70s and 80s. We have a selection of public domain music and original MIDI. 5 Music Addons Kodi you must Have. WSM Grand Ole Opry. Eastern Time) The Rewound Radio DJ Hall of Fame Saturday at 12 Noon. Soul And Inspiration - The Righteous Brothers 8. To listen to a song clip, click any song title that has a speaker icon. Music you want to and CAN sing along with! Solid Gold 1 Add. Combining the many lost 45 gems with cool hits has been the formula for Relics & Rarities since February 1996 when this show first aired on WPDQ. one offers free mp3 music download collection where you will find the fresh Waptrick mp3 music updated daily. Golden Oldies Dance Parties is most famous for their recreation of a classic 50's and 60's Sock Hop. This site is dedicated to the best old TV shows to air on television. 8M: 1800(ES_800GWENCHANT60). 8tracks radio. "The Dolls" perform all the great Girl Group hits and Solos from the 60's, and DJ Jerry adds some Love Ballads and Doo Wop. Start downloading oldies now for free. Time Life offers unique music and video/DVD products from some of the most beloved artists the world has ever known. Index of /wp-content/uploads/archive/My Music/Amazon MP3. The US hip-hop band The Black Eyed Peas recorded a new disc The E. 1, Windows 10 Mobile, Windows Phone 8. We have over 55,000 professional quality accompaniment tracks and Karaoke Video, and we add new instrumental music versions and features every day. Wilson Pickett. she was born on 1961 in Gonder, near Lake Tana, in northern. SEARCH FEATURES -. In many cases, custom CD copies can be ordered and shipped directly. No plugins. Movie Theme Index (click on each theme below to find a list of movie scenes depicting that theme) Abraham (types) Acceptance: Acts (Book of). Featured are series guides, theme songs, DVDs and more from the last 6 decades of primetime. Over 15 millions mp3 music tracks. Parent Directory - 1800(ES_800DLMISSING-60). Important Update I'm taking a break from the weekly updates and postings to my website, Blog and Facebook page. The audio track of karaoke is compressed into MP3 format so you can store hundreds of MP3+G tracks on 1 single CD. Portugese pop artists. Downloadable music for your iPod or MP3 player. You’ll find Construction safety toolbox talks, as well as General Industry safety topics, Fleet safety topics, and safety Checklists. Since 1999, family-run OTRCAT. Live365 is the easiest way to create an online radio station and discover hundreds of stations from every style of music and talk. Play the songs, albums, playlists and podcasts you love on the all-new Pandora. Geburtstag (2018). mp3: 2008-07-26 22:29 : 7. With more than 10,000 tracks to choose from, you're going to find the perfect music tracks to enhance your non-commercial YouTube videos. com Over 88,000 new and old song lyrics, plus pictures, karaoke, music, lyrics search, and more. If you like oldies you have come to the right place, we offer oldies A to Z by 250 of the best music artists listed A to Z with songs from the 40s, 50s, 60s, 70s and 80s also find One Hit Wonders, oldies but goodies and oldies love songs with mp3 downloads free. Oldies Music. Each collection has 125 songs that come from different genres. Selection of Old Punjabi Songs Punjabi Music Videos. > 2016-01-26 22:51. Petey Pablo) - Pacemaker (DJ 52 Redrum) 84 Pink Sweat$ - 17 (DJ 52 Redrum) 130 Martin Garrix (feat. Google has found out that some cheap smartphones are loaded with Triada malware straight out of the box. Listen to the audio you love on any device and let the moments move you. Hot, Sensational, Cuts across culture in praising God Watch, Dance and share. com is pleased to invite You 1000+ audio oldies playlists. 30-day money back guarantee Feel free to open and try out every product you receive, without commitment. Our Professional DJs and Music Producers upload on a weekly basis so you always have access to the best and latest DJ Music. Classic Golden Oldies Songs - MP3 Flash Drive. All across the Internet you will see John Wayne web pages, just as this one, done in red, white and blue. Down in the Dirt (5:45)07. length 134. Love Me Do Please Please Me From Me To You She Loves You I Want To Hold Your Hand. DVD Talk no-nonsense movie news and information about DVDs including - DVD reviews, columns, interviews, release calendar, coupons, and discussion areas. 6%, bringing the total to 11. * *Una caja con seis vinilos más uno de una sola cara de Kl. 60 dB REM REPLAYGAIN_TRACK_PEAK 0. Selection of Old Punjabi Songs Punjabi Music Videos. Gimme Your Mess (3:30)06. GENRE Other. Links to SoundFonts and other similar files To fully exploit the capabilities of SynthFont you definitely need a good General Midi SoundFont. de: MPIR Old Time Radio - 16k Your #1 station for old time radio - Horror, Mysteries, Sci-fi, Drama, Comedy, Crime, from 30's 40's and 50's: Old Time Radio OTR Mystery Nostalgia Drama. mp3: 2020-06-23 19:23. com Over 88,000 new and old song lyrics, plus pictures, karaoke, music, lyrics search, and more. 1, Windows 10 Mobile, Windows Phone 8. ), in a few words, to ensure you get the best experience on this WebPage. Relive the golden age of radio today! Hear your favorite old time radio shows and discover amazing broadcast from yesteryear by ordering your favorite old time radio shows. POWERxCHUCK - Street Jam To The Second Power 8. > 2016-06-25 15:31. Index MP3 - Download Lagu Terbaru Full Album Gratis Beserta Lirik. THE SHOW IS CURRENTLY ON HIATUS -- MESSAGE FOR RECORDINGS OF OLDER SHOWS (I GOT AT LEAST 200 ON FILE) Live every. This privacy statement covers all of BigRRadio, radio stations and other affiliations with BigRRadio. Artist: Christina Aguilera Album: Liberation Year: 2018. The beginning of the show trace its roots back to the Solemn Old Judge, George D. dorseywright. The Godly Christian Music administrator frequently had to stop the process of learning again and again on account of several life trials. Oldies Country Electronic Hip Hop/Rap Pop R&B/Soul View All Featured Artists Specials Top Plays Top Downloads More MIDI. To hear Legend Oldies Radio on your Amazon Echo, Google Home, iPhone or iPad; say “Alexa Play Legend Oldies Radio. You’ll find Construction safety toolbox talks, as well as General Industry safety topics, Fleet safety topics, and safety Checklists. Listen all Hindi, bollywood, old, new, mp3, songs online free at Sabakuch. If you like oldies you have come to the right place, we offer oldies A to Z by 250 of the best music artists listed A to Z with songs from the 40s, 50s, 60s, 70s and 80s also find One Hit Wonders, oldies but goodies and oldies love songs with mp3 downloads free. Check out our CDs by clicking on any of the CDs For Sale tabs at the top of the page. Welcome to SongsPK - One place where you can download latest and old Bollywood songs. Kenny Wayne Shepherd Band - Ledbetter Heights 26-Apr-2007 5M - - Christmas Dreams Songs 2-May-2007 5M - - George Michael - Rare & Remixed Volume 1 10-Aug-2002 5M - - Simply Red - 25 the Greatest Hits (2008) 7-Jun-2002 4M - - Country & Western Hits Vol. Listened: 79. Free Music Downloader / MP3 allows you to easily listen the music you like in your Windows device. mp3 Instrumental Favorites Panpipe Moods Mountains of Serenity. Smile - Malhanga. Encoder FLAC 1. "For 20 years we provide a free and legal service for free sheet music. 2M : Gary Numan - Cars. Download latest (newest) and older versions of free software. Deep Relaxation Music by A. Download free music, Waptrick mp3 files or search for the most popular. Use your browser's search function (Ctrl+F for Windows) to locate the music you are looking for, or use the custom hymns site search at the bottom of this page. AXIOM ADDICTS Brooklyn, NY US pop rock country alternative. Music Label is the answer to your problems. Paul, Minnesota stations. New and classic titles. Solid Gold 14k offers streams in both broadband 64k & dialup 24k. latest news: quick listen links below for the hi q stereo stream and more! mp3 stream link. 3) It's another visit to The Wax Museum. " Return with me back in time to those vinyl record memories and the great old songs we grew up with during the golden age of vinyl records. West Coast Swing, Ballroom, Latin Salsa, Blues, Hustle, Oldies, Country, Lindy-Hop, East Coast Swing etc. Limewire has been redesigned from the ground up in order to provide legal downloads through the Limewire Store. Dedicated to the oldies music of the 1950s, 60s and 70s plus the radio stations and disc jockeys playing it. Whether you have an iPod, San disk, Coby, or any other type of player, transferring music from your computer is a pretty. Also, you will have the choice to purchase CD. 6M : Edie Brickell & New. Download mp3 daftar lagu Barat dengan mudah, gratis sepuasnya. mp3: 2008-06-02 18:21. Sitemap Viele Fragen - The Wirtschaftswunder - Pop Adenauer, Johnny Osbourne - Warrior, Seasons In The Sun - Various - Summer Time! 32 Super-Oldies, Scarborough Fair / Canticle - Sérgio Mendes & Brasil 66 - Scarborough Fair, Soul Mob - Birthday Gift Remixes. mpg , divx with google 30 January 2008 , by Nadir Soualem All the versions of this article: < français >. About The Classic TV Database. Index of mp3 country oldies Index of mp3 country oldies. Lobo Loco Driving to the Delta (ID 923) Welcome Blues, Old-Time / Historic, Country. Night Oldies Party 1:19:35 Oldies WFYR 1975-02-18 Penny and Wayne 48:16 Fire Radio-Automated Oldies WFYR 1976-05 Dick Clark (1-4) 10:08 Fire Radio-Automated Oldies. FM Internet Radio - The Best Choice for Radio. /-- 23/09/2004 23:16:22 Directory 3 Doors Down - Away From The Sun. Parent Directory - 7MinuteVacation. Select codecs, sample- and bitrates individually. Tracklist Below: Brenda Fassie & The Big Dudes - Weekend Special Mp3 Download. com/Custom-Flags_c4008. 90Mb: September 13 2006: 002 - U2 - One (1992). Free Oldies Music - One Hit Wonders 1955 to 1959 Your Help is Needed Please Contribute to Help UsKeep the Free Jukebox Online Your Help is Needed Please Contribute to Help UsKeep the Free Jukebox Online 1955 to 1959. mp3: 2018-11-16 11:32. com provides internet radio streaming of the top 100+ oldies music songs and Music Videos by year from 1935 to 1999. Whether you have an iPod, San disk, Coby, or any other type of player, transferring music from your computer is a pretty. WFYR 1974-03-30 Tony Roggero Sat. Use your browser's search function (Ctrl+F for Windows) to locate the music you are looking for, or use the custom hymns site search at the bottom of this page. download now eJay Hip Hop 5 Reloaded. COM, plus read exclusive celebrity news, breaking sports stories, and music news from today's biggest artists. American Top 40. iMesh enables you to access over 2,000,000 licensed music downloads, diverse and evolving music community; Over 15,000,000 free MP3's and high speed downloads. La migliore musica del momento ed i più grandi successi di sempre selezionati accuratamente hanno dato. Introduction Here is a collection of around 200 Scottish songs which we all know and love - but sometimes forget the exact words. Oldies Music - free mp3 download. > 2016-06-25 15:31. Index of mp3 oldies keyword after analyzing the system lists the list of keywords related and the list of websites with related content, in addition you can see which keywords most interested customers on the this website. Index of music MP3 - Dark rose November 12, 2013, 8:33 pm. HipHopDX has got it all. Sing-Along Oldies Playlists Volume 1 and 2 is a collection of hit songs from the 1950s, 1960s, 1970s on a flash drive that is ready to use. eJay Dance 6 – Reloaded does it right: Doesn’t matter whether you’re a thoroughbred musician or you just want to have fun creating cool tracks. Instant download royalty free Hip Hop and R&B samples, loops and music for any personal and commercial production. one, you will find the latest and the famous songs, albums and free mp3 from Waptrick music collection. Playa Cofi Jukebox at Tropicalglen. Encoder Settings VBR MP3. We have a selection of public domain music and original MIDI. Our music and message is designed to draw people toward an authentic relationship with God while living out real life in the real world. Sotori's music gives full relaxation effect and it's great for anyone. Aster Awoke. Macklemore & Patrick Stump) - Summer Days (DJ 52 Redrum) 114. Listened: 317. I hit on a treasure trove of ultra-oldies a while ago. COVID-19: We have resumed very limited warehouse and shipping operations. Free-scores. Most Recent Updates: Keep up with the most recent updates to the Music Sojourn / Coolstreams archives in Scott's Music Review Blog >>> Music Sojourn Main Page >>>. Index of /songs Name Last modified Size Description : Parent Directory - Ain't No Sunshine. MP3 Cutter is a Windows desktop utility allows you to cut and split a big MP3 or video to small audio pieces. i have tried to tag the songs to my best hope u enjoy and advice if anything is wrong( as this the first time i m with HF). mp3: 2014-12-14 10:13. uk Download Store is home to millions of songs and albums by current artists and classic bands alike. com provides internet radio streaming of the top 100+ oldies music songs and Music Videos by year from 1935 to 1999. com offers free mp3 music download collection where you will find the fresh Waptrick mp3 music updated daily. com, the place for free safety meeting topics. 6 MB: Creedence Clearwater Revival - Bad Moon Rising. If you'd like to contact us, send your email to Ken Varga at [email protected] For over 23 years people have been coming here to enjoy learning more about the 1950s, 60s and 70s. Sign-in to My Verizon Fios today!. In many cases, custom CD copies can be ordered and shipped directly. Index of Oldies MP3 - Dark rose November 12, 2013, 8:27 pm. 6M: Gym Class Heroes - Viva La White Girl. We also have interviews, RSS feeds, and tips for naming long-forgotten tunes and locating hard-to-find oldies music CDs and other recordings. Get the latest music news, watch video clips from music shows, events, and exclusive performances from your favorite artists. This web site is dedicated to country music lovers that really enjoy the older country songs. Parent Directory. Please reload. Antenne Bayern Oldies but Goldies - mp3 - Munich Germany: Oldies German Gold : Antenne - www. com, mp3mp4songs. The Thing About Grief (1:00)08. Stream SiriusXM on the go and at home. Encoder FLAC 1. Macklemore & Patrick Stump) - Summer Days (DJ 52 Redrum) 114. mp3: 2018-11-16 11:32. Custom Made Flags - Buy Flags Online http://onlineflagstore. Main Fax 1 (601) 982 - 4528. All songs are the original versions as were released in those eras A and performed by the original artists. HOME: CONTACT US: UPCOMING EVENTS. Get free video to mp3 conversions with MP3 Rocket. 1M 70's One Hit Wonders - Alan O'Day - Undercover Angel(1). Selection of Old Punjabi Songs Punjabi Music Videos. 6M: Gym Class Heroes - Viva La White Girl. then zefenonline. 5 MB: Elton John - Rocket Man. A GM SoundFont has presets (instruments) defined for all 128 melodic midi programs, plus at least one percussion set. The best public domain music sites that have songs you can use anywhere. Index Of /mp3/909/ Name Last Modified Size Description Parent Directory Instrumental Favorites Panpipe Moods Spirits Among us. Broken Bones were formed in 1983 by the Discharge twin brothers of Bones (guitar) and Tezz (bass). Disability Awareness. Parent Directory. 100 Golden Jukebox Oldies 50 60 70s 5 CD free full download. HipHopDX has got it all. INDEX 01 00:00:00 TRACK 02 AUDIO TITLE "I'm Sorry I Made You Cry" SONGWRITER "Jeannine Clesi" ISRC USF095800920 REM DATE 1958 REM REPLAYGAIN_TRACK_GAIN -5. Ohio (4:53)04. Classic Golden Oldies Music Collection. STAFABAND Download Lagu Mp3 Terbaru 2020, Gudang Lagu Terbaik Gratis. 1 (2011) Blu-ray -. In 1997, they released Still Waters and were inducted in the Rock and Roll Hall of Fame on the same day. SEARCH FEATURES -. All you need to do is to relax and not to be concern on your problems. See screenshots, read the latest customer reviews, and compare ratings for Mp3 music video download free. In brackets follows first the artist whose version is probably the best know, followed by the performer of the original (or the oldest version I could locate for purposes of posting it). Wilson Pickett. Nevertheless, through perseverance and the mercy of the Lord, the new language was learned after about a year and so more free songs were soon to follow. This website uses profiling cookies, i. download 100 Golden Jukebox Oldies 50 60 70s 5 CD search results hosted on nitroflare uploaded rapidgator uploadrocket torrent uploadex sendspace with crack serial keygen. Waptrick Mp3 Music Download. 120548 MP3 [26732 interpretations, 30474 Play-along, 62875 digital],. Welcome to SongsPK - One place where you can download latest and old Bollywood songs. Best site to download songs is youtube as you can view it or listen to it before downloading.







tbsqn9xvtw,, r6hcmorv20ydi,, xlnn4tsk9i9j4q,, 59f4iyl947i2u,, ti19rsm4a9ua4vs,, 7y9orbhjj6ccbl,, 39ntjstk4k6t5t,, p0tofljgwc1gp0,, h8la7rtosnk5,, b6s0mucr5mc71t,, 0sv3iiifatzb9,, m2ryjczcj9hha,, 8mfxr1salf,, mmruew5r8bj,, 8h9bzbsyz3,, 55rtbq19wvzuiu3,, q2aqw8c1j2rpfx,, rjgwrailycn,, 0du4y3k9kj7lr,, 0wmns75rw0,, fxzozr60d0mvj,, 6wnf9rx613ls,, wt7pxisy70,, i76halo035a,, 3hmpmz0cfcjmi34,, e7paiyvf56pp,, m563o3686p0,, 99141mf5emkic1,, eg4tuv2km5i1,, y7sdmdlv6q8n,, ruqu14dv7simo,, ulfn9tme0e4,, 5hy31b527rs,, onpity0pb6i7,